download 1 file . November 7, 2019. download 1 file . Vocal Backing Track MP3 $1.99. Werbefrei streamen oder als CD und MP3 kaufen bei Amazon.de. Get the complete list of Brol mp3 songs free online. Vocal Backing Track MP3 $1.99. Ellie Goulding - Close To Me 14. Martin Garrix - Summer Days (feat. Bits per sample: 24 Clean Bandit - Baby (feat. Music Videos. 21 - Mylène Farmer - Des ... 9 - Boulevard des Airs - Allez reste.mp3 download. Official DR value: DR6, Samplerate: 44100 Hz Analyzed: Angele / Brol Victime des réseaux - Angèle - MP3 instrumental karaoke. Angèle Van Laeken is the daughter of the singer Marka and of the actress Laurence Bibot. Perdus - Angèle - MP3 instrumental karaoke. download 19 files . Jenifer - Comme c'est bon 13. Perdus download. Please read and accept our website Terms and Privacy Policy to post a comment. Angèle - Flemme 12. Angèle – Flou (Live) | Vevo DSCVR ARTISTS TO WATCH 2019 Download mp3 qeshu Posted on September 5, 2019 Angèle – Flou – an exclusive live performance for Vevo DSCVR ARTISTS TO WATCH 2019, an annual series… Ванильный рэпчик. Stream ad-free or purchase CD's and MP3s now on Amazon.co.uk. DR6 -0.22 dB -8.62 dB 2:55 08-Les matins 3:16 PREVIEW 12 SONGS, 41 MINUTES. 19 - Angèle - Flou.mp3 download. Rolling Stones – Voodoo Lounge (Mastered At Abbey Road Studios) 1994 (2020) [DSD 128, LP], Nick Cave – Idiot Prayer (Nick Cave Alone At Alexandra Palace) (2020) [Vinyl], Chance the Rapper and Jeremih – Merry Christmas Lil Mama: The Gift That Keeps On Giving (17 tracks) (2020) [24bit Hi-Res], Claude Williamson Trio – South Of The Border West Of The Sun 1992 (2017) [SACD], Pye Corner Audio – Discography [2005-2020], Creedence Clearwater Revival ‎– Creedence Clearwater Revival (2001) [6CD BoxSet], King Crimson – Complete 1969 Recordings (2020) [20CD BoxSet], Steve Wynn – Decade (2020) [24bit Hi-Res], John Kameel Farah – Strands (Solo Piano Improvisations) (2018) [24bit Hi-Res], Hartmut Rohde – Josef Tal: Works for Viola (2018) [24bit Hi-Res], Dream Theater – Web Collection [1989-2020], Andrew Weatherall – Discography [1990-2020], Angèle – Brol La Suite (2019) [24bit Hi-Res], Verve Jazzclub Collection (155 Releases) [2006-2013], The Very Best of 90s – Vol.1-4 [2010-2012], Top Of The Pops: Year by Year Collection (1964-2006) (2008) [43CD], Claude Williamson Trio – El Noche De Espana (2019) [SACD], Rick Wakeman And The English Rock Ensemble ‎- No Earthly Connection (1976) [DSD 128, LP], Melody Gardot – Live In Europe (2018) [DSD 128, Limited Edition, Vinyl], Justin Timberlake – The Complete 20/20 Experience (2013) [DSD 128, LP]. Oui ou non download. Access type.
12. Entdecken Sie Brol [Explicit] von Angèle bei Amazon Music. 07 Angèle Ta Reine ( Version Orchestrale) ... Angèle - Flou.ogg download. At only 22, Belgium singer Angèle stands out from the masses and perfectly embodies what her generation is about, transcending the musical, sartorial, social or ethnic divides. Flou - Acapella Angèle. 3.0M . Flou Angèle More by Angèle. Ca khúc Flou do ca sĩ Angele thể hiện, thuộc thể loại Pop.Các bạn có thể nghe, download (tải nhạc) bài hát flou mp3, playlist/album, MV/Video flou miễn phí tại NhacCuaTui.com. Oui ou non download. DR6 -0.21 dB -8.08 dB 3:22 01-La thune Angèle - Nombreux 07. Brol La Suite 2019 S'en aller (feat. Angèle - Victime des réseaux 08. Uplevel BACK 2.8M . DR6 -0.22 dB -8.24 dB 3:25 09-Je veux tes yeux This title is a cover of Victime des réseaux as made famous by Angèle. ... or by exporting MP3 files to your computer and playing on any MP3 compatible music player. Stream ad-free or purchase CD's and MP3s now on Amazon.com. Vocal Backing Track MP3 $1.99. Download it, sing it. Genres: MARINA & Luis Fonsi) 11. This title is a cover version of Flou as made famous by Angèle. 05. Angèle (3) + Brol = 2 awards at the occasion of "Les Victoires de la Musique 2019" (2019-02-08): Revelation Album of the Year & Audiovisual Production of the year for the video of "Tout Oublier". Original songwriter: Angèle, Tristan Salvati. download 28 Files download 28 Original. Acabas de encontrar Angele Flou Remix.Pero no solo eso, sino que te encuentras a nada de descargar mp3 gratis en la mejor calidad como no existen en otras plataformas. Angèle - Flou (Gregcy Extended Remix) PR 0,6 Like Give Premium. 12. DR6 -0.22 dB -7.51 dB 3:22 04-Tout oublier Find the best place to Brol movie songs download list. Angèle donne ses premiers concerts dans des cafés de Bruxelles. Name Last modified Size; Go to parent directory: 1 - Angèle - Balance ton quoi.afpk: 05-May-2019 05:50: 34.5K: 1 - Angèle - Balance ton quoi.mp3: 05-May-2019 05:39 Angèle – Flou – an exclusive live performance for Vevo DSCVR ARTISTS TO WATCH 2019, an annual series highlighting those that are shaping the future of music. All files available for download are reproduced tracks, they're not the original music. French Pop Music, Electro, In French "15. ... Flou. Angèle Van Laeken (born 3 December 1995), better known by her stage name Angèle, is a Belgian singer-songwriter, musician, pianist, record producer and actress. Flou Angèle More by Angèle. [ OxTorrent.com ] VA - 110 Hits 2020-5CD-2019 (WEB.MP3 a 320kbps) EICHBAUM 6 torrent download locations Download Direct [ OxTorrent.com ] VA - 110 Hits 2020-5CD-2019 (WEB.MP3 a 320kbps) EICHBAUM could be available for direct download Spónsored Link google.com [ OxTorrent.com ] VA - 110 Hits 2020-5CD-2019 (WEB.MP3 a 320kbps) EICHBAUM 10 months torrent9.pl 110 Hits 2020 Musique Roméo Elvis - Tout oublier 05. 19 tracks (64:32). This title is a cover version of Flou as made famous by Angèle. Flou Your No.1 source for MP3 instrumental tracks, This title is a cover of Jalousie as made famous by Angèle, Duration: 3:48 - Preview at: Brol is the first studio album released by Angèle, a young Belgian artist from Brussels. 0. In the same key as the original: Fm This song ends without fade out Duration: 03:18 - Preview at: 01:32. Angele - Brol 24 bit Hi-Res Year Of Release: 2018 Genre: Pop Format: Flac, Tracks Bitrate: lossless, 24bit Sample Rate: 44100Hz Audio Channels: 2.0 Total Size: November 30, 2020 WRZmusic Released. An icon used to represent a menu that can be toggled by interacting with this icon. Format: MP3 320 Kbps Victime des réseaux - Angèle - MP3 instrumental karaoke. RELEASED OCTOBER 5, 2018 ℗ 2018 ANGÈLE VL RECORDS. Хип-хоп для спортивных танцев. Wav, mp3, aif, m4a, flac, ogg or acc: 5min or 49MB max. Music Videos. Instrumental Version MP3. Same as the original tempo: 113 BPM. 3.6M . Report. She was born in Uccle, Brussels-Capital Region. Insomnies download. Brol Songs - Download Brol mp3 songs to your Hungama account. Tu me regardes. Angèle. Here you can buy and download music mp3 Angele. Por fin terminas de encontrar Angele Flou.Pero no solo eso, sino te hallas a nada de descargar mp3 gratis de muy buena calidad como no ofrecen otras paginas. La loi de Murphy. Contributions: 61 translations, 974 thanks received, 8 translation requests fulfilled for 4 members, explained 1 idiom, left 3 comments 0. Пошумим. Same as the original tempo: 92 BPM. Angèle - Flou 06. Perdus download. This title is a cover of Flou as made famous by Angèle. Flou. 3.0M . Angèle. Save my name, email, and website in this browser cookies for the next time I comment. Télécharger Nrj Holiday 2019 en torrent . With backing vocals. Check out Brol [Explicit] by Angèle on Amazon Music. Download Flou song on Gaana.com and listen Brol Flou song offline. Key F Minor. IN COLLECTIONS. With backing vocals. Download the karaoke with lyrics. VBR M3U download. Translation of 'Flou' by Angèle from French to English. Listen online 19 songs from La Loi De Murphy (CDS) 2017 - Angele. DR6 -0.22 dB -8.84 dB 3:23 07-Victime des réseaux Angèle – Flou (Live) | Vevo DSCVR ARTISTS TO WATCH 2019 Download mp3. Sam Smith - Dancing With A Stranger 09. Гангста-рэп. La loi de Murphy. Download Hungama Music app to get access to unlimited free mp3 songs, free movies, latest music videos, online radio, new TV shows and much more at Hungama. Uplevel BACK 2.8M . 2.9m Followers, 583 Following, 453 Posts - See Instagram photos and videos from Angèle (@angele_vl) View credits, reviews, tracks and shop for the 2018 File release of Brol on Discogs. Streaming and by permanent download to your computer and/or device. File type. DR7 -0.30 dB -9.02 dB 3:15 05-La loi de Murphy Macklemore & Patrick Stump of Fall Out Boy) 12. Flou - Angèle MP3, Paroles et clip à écouter et télécharger légalement 01:32. -------------------------------------------------------------------------------- DR6 -0.22 dB -8.92 dB 3:46 03-Jalousie You can buy latest album La Thune (CDS) 2018 - Angele. Flou made famous by Angèle • 2 music tracks in MP3 instrumental version • 1 music track with vocals (cover) Angèle - Ta reine 11. Flou - Angèle - Custom Backing Track MP3. 3.3M . Give it a 2 stars? Check out Brol [Explicit] by Angèle on Amazon Music. Angèle - Jalousie 04. DR6 -0.22 dB -7.57 dB 4:16 11-Flemme Check out Flou by Angèle on Amazon Music. 3.4M . Key. VA - Music Pack 062 (2020) torrent download location Download Direct VA - Music Pack 062 (2020) could be available for direct download Spónsored Link google.com VA - Music Pack 062 (2020) 3 months. Flou - Angèle - MP3 instrumental karaoke. The instrumental for Flou is in the key of F Minor, has a tempo of 113 bpm, and is 3 minutes and 16 seconds long. Tempo 113 bpm. Same as the original tempo: 113 BPM. Angèle. Vocal Backing Track MP3 $1.99. These music files do not include lyrics. How would you rate this track? Latest titles and artists played on activ-radio-mp3. 3.3M . View credits, reviews, tracks and shop for the 2018 180 Grs, White Vinyl release of Brol on Discogs. Key. Listen free to Angèle – Brol, la suite (La Thune, Balance ton quoi and more). Key. MP3. This title is a cover of Victime des réseaux as made famous by Angèle. Flou Your No.1 source for MP3 instrumental tracks, This title is a cover of Jalousie as made famous by Angèle, Duration: 3:48 - Preview at: Brol is the first studio album released by Angèle, a young Belgian artist from Brussels. DR8 -0.24 dB -11.89 dB 3:13 06-Nombreux DR5 -0.22 dB -8.42 dB 3:17 12-Flou Vocal Backing Track MP3 $1.99. 07 Angèle Ta Reine ( Version Orchestrale) ... Angèle - Flou.ogg download. 01. 20 - Lara Fabian - Par Amour.mp3 download. Macklemore & Patrick Stump of Fall Out Boy).mp3" Download: MP3, 320 Kbit Listens: 56 Downloads: 17 Styles: Electro Remix to: Angèle - Flou Duration: 4:27 BPM: 125 Key: Fm Mastered Size: 10.2Mb Recording: 20 September 2019 Your No.1 source for MP3 instrumental tracks, This title is a cover of Flou as made famous by Angèle, Duration: 03:18 - Preview at: Angèle - Flou (Gregcy Radio Remix) PR 0,5 Like Give Premium. DR5 -0.22 dB -8.65 dB 3:33 10-Ta reine Flou - Angèle - MP3 backing track. Bitrate: 1553 kbps An icon used to represent a menu that can be toggled by interacting with this icon. Flou. Angèle - Les Matins 09. This title is a cover of Perdus as made famous by Angèle. Angèle – Flou (Live) | Vevo DSCVR ARTISTS TO WATCH 2019 Download mp3. Using BitTorrent is legal, downloading copyrighted material isn’t. This title is a cover of Flou as made famous by Angèle. Music Videos. Same as the original tempo: 113 BPM. What is the title? Discover releases, reviews, credits, songs, and more about Angèle - Brol at Discogs. Label ℗ 2019 Angèle VL Records. Macklemore & Patrick Stump of Fall Out Boy).mp3" Camelot 4A. Stream ad-free or purchase CD's and MP3s now on Amazon.co.uk. Shop Vinyl and CDs and complete your Angèle collection. 1:04:43. SHOW ALL. History titles awarded on the radio Activ Radio-mp3-192K. Release date: 2018 Angèle - La Loi de Murphy 06. In the same key as the original: Fm This song ends without fade out Duration: 03:18 - Preview at: 01:32. TORRENT download. Flou - Angèle - MP3 instrumental karaoke. Same as the original tempo: 92 BPM. Channels: 2 Angèle feat. The acapella for Flou is in the key of F Minor, has a tempo of 113 bpm, and is 3 minutes and 16 seconds long. Télécharger Nrj Holiday 2019 en torrent . TORRENT download. Трэп. Brol La Suite 2019 S'en aller (feat. - Martin Garrix - Summer Days (feat. Русский рэп: открытия. This track ends without fading out Duration: 3:18 - Sample at: 1:32. download 1 file . Daily updates! Instrumental Version MP3. Reply Notify me Helpful Además, te ofrecemos la oportunidad de escuchar música online, y como consecuencia, bajarla en forma segura, frenando que tu computadora de escritorio, o teléfono, se infecte con software malintencionados. Pop, Généraliste, Informations, Top 50, Rock. Vocal Backing Track MP3 $1.99. Total length. VBR MP3 . With backing vocals. With […] Tempo: variable (around 69 BPM) ... Flou. Direct access to the radio page:. Entdecken Sie Flou von Angèle bei Amazon Music.